#TITLE:on the radio;
#SUBTITLE:;
#ARTIST:舞动精灵王族(Groove Coverage);
#TITLETRANSLIT:;
#SUBTITLETRANSLIT:;
#ARTISTTRANSLIT:;
#CREDIT:;
#BANNER:on the radio-logo.jpg;
#BACKGROUND:on the radio.jpg;
#LYRICSPATH:;
#CDTITLE:Lan.png;
#MUSIC:on the radio.mp3;
#OFFSET:-0.040;
#SAMPLESTART:100.000;
#SAMPLELENGTH:12.000;
#SELECTABLE:YES;
#BPMS:0.000=128.010;
#STOPS:;
#BGCHANGES:;
// cache tags:
#FIRSTBEAT:5.000;
#LASTBEAT:272.625;
#SONGFILENAME:Songs/SDO/on the radio/on the radio.sm;
#HASMUSIC:1;
#HASBANNER:1;
#MUSICLENGTH:133.058;
// end cache tags

//---------------dance-single - sky----------------
#NOTES:
     dance-single:
     sky:
     Hard:
     10:
     0.966,0.896,1.000,0.210,0.718,664.000,190.000,28.000,0.000,71.000:

0000
0000
0000
0000
,
0000
0000
1010
0101
1010
0101
1010
0000
,
0011
0100
1000
0000
2010
0000
0010
0000
0010
0000
0010
0000
0010
0000
0010
3000
,
0101
0000
1001
0000
0101
0000
1001
0000
0101
0000
0001
0000
1001
0100
1010
0100
,
1001
0000
2010
0000
0001
0000
0010
0000
0001
0000
0010
3000
0101
0000
1010
0000
,
0110
0000
2010
0000
0010
0000
0010
0000
0001
0000
0001
3000
0101
0000
1001
0000
,
1010
0000
0101
0000
2010
0000
0001
0000
0001
0000
0010
3000
0101
0000
1010
0000
,
0101
1010
1010
0101
1001
0110
1001
1010
,
0101
0000
0101
0000
1001
0000
0001
0000
0101
1000
0110
0000
0010
0000
0010
0000
,
0101
2001
0010
0001
0010
0001
0010
0001
,
0011
0010
0000
0000
0000
0000
0000
0000
,
0000
0000
0000
3000
0112
0000
1000
0000
0110
0000
1000
0000
1100
0000
0010
0000
,
0110
0000
1000
0000
1100
0000
0010
0000
0110
0000
1000
0000
1100
0000
0010
0003
,
0110
1000
0121
0001
1100
0100
1001
0100
,
0101
0000
0001
0000
1100
0000
0100
0000
0101
0000
0001
0000
0101
0000
0100
0030
,
1100
0001
1210
1000
1001
0001
0011
0010
,
1010
0001
1010
1000
0011
0010
1010
1000
,
1010
0000
0010
0000
1001
0000
0010
0000
0011
0000
1000
0000
1010
0000
0001
0300
,
1010
0001
0110
1000
0101
0010
0011
0100
,
1100
0000
0010
0000
2011
0000
0100
0000
0011
0000
0010
0000
0101
0000
0001
3000
,
0110
0000
0001
0000
1210
0000
1000
0000
0011
0000
0001
0000
1010
0000
1000
0300
,
0011
0000
0100
0000
1021
0000
1000
0000
0101
0000
0001
0000
1100
0000
0100
0030
,
1001
0000
0010
0000
1102
0000
0100
0000
1010
0000
1000
0000
0110
0000
0100
0003
,
1010
0000
0100
0000
0121
0000
0100
0000
1001
0000
0001
0000
1100
0000
0100
0030
,
1001
0010
0211
0001
1010
1000
0011
0010
,
1001
0000
1000
0000
0011
0000
0001
0000
1010
0000
0010
0000
1001
0000
0010
0300
,
1010
0001
1110
0000
0111
0000
1011
0000
,
0110
0000
0000
0000
0120
1000
0001
0100
1000
0100
0001
0100
1000
0100
1000
0001
,
0100
1000
0001
0100
1000
0001
0100
1000
0100
0001
0100
1000
0001
0100
1000
0031
,
1100
0000
0010
0000
0001
0010
0100
1000
0001
0001
1000
1000
0100
0100
0010
0010
,
0001
0001
1000
1000
0001
0001
0100
0100
0010
0010
1000
1000
0001
0001
0100
0100
,
0000
0110
1001
0011
1010
0110
1100
0101
,
1010
0101
1100
0110
1010
0110
0101
1100
,
0101
0000
0100
0000
1020
0100
0001
0100
1000
0001
0100
0001
0100
1000
0100
0001
,
0100
1000
0100
0001
1000
0001
0100
1000
0001
0100
1000
0001
0100
0001
1000
0030
,
0001
0010
0100
1000
0000
0000
0000
0000
1010
0000
0000
0000
0101
0000
0000
0000
0110
0000
0000
0000
1010
0000
0000
0000
0011
0000
0000
0000
0110
0000
0000
0000
,
0101
1001
0110
0011
1100
0101
1010
0110
,
0101
0000
0010
0000
0012
0100
1000
0100
0010
1000
0100
0010
0100
1000
0100
1000
,
0010
0100
0010
1000
0100
1000
0100
0010
0100
1000
0010
0100
1000
0010
1000
0103
,
0010
0000
0100
0000
2001
0010
0100
0001
0010
0100
0010
0100
0001
0010
0001
0010
,
0100
0010
0001
0100
0010
0001
0010
0001
0100
0010
0100
0001
0010
0100
0010
3001
,
0000
0100
1100
1010
0101
0110
0101
1010
,
1100
0110
0011
1010
0101
1100
0011
0110
,
1001
0001
0001
0001
,
0001
0210
0010
0010
,
0010
0000
0000
0000
0010
0000
0000
0000
0010
0000
0000
0000
0010
0000
0000
0300
,
0000
0010
1002
0000
1000
0000
1000
0000
,
1000
0000
0000
0000
1000
0000
0000
0000
1000
0000
0000
0000
1000
0000
0000
0003
,
0000
1000
0120
0000
0100
0000
0100
0000
,
0100
0000
0000
0000
0100
0000
0000
0000
0100
0000
0000
0000
0100
0000
0000
0030
,
0000
1000
0201
0000
0001
0000
0001
0000
,
0001
0000
0000
0000
0001
0000
0000
0000
0001
0000
0000
0000
0001
0000
0000
0300
,
0000
0000
0000
0000
2101
0010
0100
0001
0010
0100
0010
0100
0001
0010
0001
0010
,
0101
0010
0001
0100
0010
0001
0010
0001
0100
0010
0100
0010
0101
0010
0100
3001
,
0000
0000
0100
0000
0211
1000
0010
0001
0010
0001
1000
0010
1000
0001
0010
1000
,
0011
1000
0010
0001
0010
1000
0010
0001
0010
1000
0001
0010
1001
0010
1000
0301
,
0000
0000
1000
0000
1120
0001
0100
1000
0100
0001
0100
1000
0001
0100
0001
0100
,
1001
0100
1000
0001
0100
0001
1000
0100
1000
0001
0100
1000
0101
1000
0100
0031
,
0000
0000
0100
0000
0112
1000
0100
0010
0100
1000
0010
0100
1000
0100
0010
0100
,
1010
0100
1000
0100
0010
0100
1000
0100
0010
0100
1000
0010
1100
0010
0100
1003
,
0000
0000
0000
0000
1100
0010
0100
0001
0010
0100
0001
0100
0011
1000
0010
0001
,
0010
1000
0100
1000
0011
1000
0100
0001
1000
0010
1000
0001
1100
0010
0100
1000
,
0000
0000
0001
0000
1210
0001
0010
1000
0010
0001
1000
0010
1001
0010
1000
0010
,
0001
0010
0001
1000
0011
1000
0010
0001
0010
1000
0010
0001
1010
0001
0010
1300
,
0000
0000
0001
0000
2110
0001
0010
0100
0010
0001
0100
0001
0110
0001
0010
0100
,
0010
0001
0010
0100
0011
0100
0010
0001
0010
0001
0100
0010
0101
0010
0100
3001
,
0000
0000
0100
0000
1010
0100
0001
1000
0100
0010
0001
0100
0011
0100
1000
0010
,
0100
0001
0010
1000
0110
1000
0001
0010
0100
0001
0010
1000
0110
1000
0010
0001
,
0000
0000
1000
0100
0010
0001
0000
0000
0000
0000
0000
0000
0000
0000
0000
0000
0000
0000
0000
0000
0000
0000
0000
0000
0000
0000
0000
0000
0000
0000
0000
0000
;
